(KPop) Lee Seung Chul (이승철) - (4 Альбома) - 2005-2009, FLAC (image+.cue) lossless

Страницы:  1

Ответить
Автор
Сообщение

Александр Макухин

Стаж: 9 лет 2 месяца

Сообщений: 618


Александр Макухин · 20-Сен-10 15:16 (8 лет 9 месяцев назад, ред. 06-Июн-12 09:21)

Lee Seung Chul (이승철) - (4 Альбома)
Жанр: KPop
Страна-производитель диска: Республика Корея
Год издания диска: 2005-2009
Страна: Республика Корея
Аудио кодек: FLAC (*.flac)
Тип рипа: image+.cue
Битрейт аудио: lossless
Продолжительность: 43:24 ~ 55:20
Источник (релизер): Диски из личной коллекции
Наличие сканов в содержимом раздачи: да
Треклист:
2005 - Blue. Movie collection Lee Seung Chul
Blue. Movie collection Lee Seung Chul
01. 서쪽 하늘 (Western Sky)
02. 그냥 그렇게 (Just Like That)
03. 너의 곁으로 (To Beside You)
04. Too Young To Love
05. 말리꽃 (Jasmine)
06. 넌 또 다른 나 (You Are Other Me)
07. 인연 (Destiny)
08. 달은 해가 꾸는 꿈 (The Moon Is A Dream Which Sun Dreaming Of)
09. 그대가 나에게 (To Me You Are)
10. 서쪽 하늘(Western Sky - Inst.)
Звучание альбома 43 минут, 23 секунд.
.
.
Лог создания рипа Blue. Movie collection Lee Seung Chul
Exact Audio Copy V0.99 prebeta 5 from 4. May 2009
EAC extraction logfile from 13. September 2011, 17:19
Lee Seung Chul / Blue
Used drive : HL-DT-STDVDRAM GSA-H10A Adapter: 3 ID: 0
Read mode : Secure
Utilize accurate stream : Yes
Defeat audio cache : Yes
Make use of C2 pointers : No
Read offset correction : 667
Overread into Lead-In and Lead-Out : No
Fill up missing offset samples with silence : Yes
Delete leading and trailing silent blocks : No
Null samples used in CRC calculations : Yes
Used interface : Native Win32 interface for Win NT & 2000
Used output format : Internal WAV Routines
Sample format : 44.100 Hz; 16 Bit; Stereo
TOC of the extracted CD
Track | Start | Length | Start sector | End sector
---------------------------------------------------------
1 | 0:00.00 | 4:03.70 | 0 | 18294
2 | 4:03.70 | 4:2
5.31 | 18295 | 38200
3 | 8:29.26 | 4:41.19 | 38201 | 59294
4 | 13:10.45 | 3:48.73 | 59295 | 76467
5 | 16:59.43 | 4:50.37 | 76468 | 98254
6 | 21:50.05 | 4:25.45 | 98255 | 118174
7 | 26:15.50 | 4:41.45 | 118175 | 139294
8 | 30:57.20 | 3:49.59 | 139295 | 156528
9 | 34:47.04 | 4:34.70 | 156529 | 177148
10 | 39:21.74 | 4:02.55 | 177149 | 195353
Range status and errors
Selected range
Filename D:\Музыка\Мои альбомы\Lee Seung Chul\2005 - Blue. Movie collection Lee Seung Chul\Lee Seung Chul - Blue.wav
Peak level 99.9 %
Range quality 99.9 %
Test CRC 3FCA83C2
Copy CRC 3FCA83C2
Copy OK
No errors occurred
AccurateRip summary
Track 1 not present in database
Track 2 not present in database
Track 3 not present in database
Track 4 not present in database
Track 5 not present in database
Track 6 not present in database
Track 7 not present in database
Track 8 not present in database
Track 9 not present in database
Track 10 not present in database
None of the tracks are present in the AccurateRip database
End of status report
Содержание индексных карт (.CUE)
Lee Seung Chul - Blue (FLAC).cue
REM GENRE KPop
REM DATE 2005
REM DISCID 7D0A2C0A
REM COMMENT "ExactAudioCopy v0.99pb5"
PERFORMER "Lee Seung Chul"
TITLE "Blue"
FILE "Lee Seung Chul - Blue.flac" FLAC
TRACK 01 AUDIO
TITLE "서쪽 하늘 (Western Sky)"
PERFORMER "Lee Seung Chul (이승철)"
INDEX 01 00:00:00
TRACK 02 AUDIO
TITLE "그냥 그렇게 (Just Like That)"
PERFORMER "Lee Seung Chul (이승철)"
INDEX 01 04:03:70
TRACK 03 AUDIO
TITLE "너의 곁으로 (To Beside You)"
PERFORMER "Lee Seung Chul (이승철)"
INDEX 01 08:29:26
TRACK 04 AUDIO
TITLE "Too Young To Love"
PERFORMER "Lee Seung Chul (이승철)"
INDEX 01 13:10:45
TRACK 05 AUDIO
TITLE "말리꽃 (Jasmine)"
PERFORMER "Lee Seung Chul (이승철)"
INDEX 01 16:59:43
TRACK 06 AUDIO
TITLE "넌 또 다른 나 (You Are Other Me)"
PERFORMER "Lee Seung Chul (이승철)"
INDEX 00 21:48:64
INDEX 01 21:50:05
TRACK 07 AUDIO
TITLE "인연 (Destiny)"
PERFORMER "Lee Seung Chul (이승철)"
INDEX 01 26:15:50
TRACK 08 AUDIO
TITLE "달은 해가 꾸는 꿈 (The Moon Is A Dream Which Sun Dreaming Of)"
PERFORMER "Lee Seung Chul (이승철)"
INDEX 01 30:57:20
TRACK 09 AUDIO
TITLE "그대가 나에게 (To Me You Are)"
PERFORMER "Lee Seung Chul (이승철)"
INDEX 01 34:47:04
TRACK 10 AUDIO
TITLE "서쪽 하늘 (Western Sky - Inst.)"
PERFORMER "Lee Seung Chul (이승철)"
INDEX 00 39:09:48
INDEX 01 39:21:74
Lee Seung Chul - Blue.cue
REM GENRE KPop
REM DATE 2005
REM DISCID 7D0A2C0A
REM COMMENT "ExactAudioCopy v0.99pb5"
PERFORMER "Lee Seung Chul"
TITLE "Blue"
FILE "Lee Seung Chul - Blue.wav" WAVE
TRACK 01 AUDIO
TITLE "서쪽 하늘 (Western Sky)"
PERFORMER "Lee Seung Chul (이승철)"
INDEX 01 00:00:00
TRACK 02 AUDIO
TITLE "그냥 그렇게 (Just Like That)"
PERFORMER "Lee Seung Chul (이승철)"
INDEX 01 04:03:70
TRACK 03 AUDIO
TITLE "너의 곁으로 (To Beside You)"
PERFORMER "Lee Seung Chul (이승철)"
INDEX 01 08:29:26
TRACK 04 AUDIO
TITLE "Too Young To Love"
PERFORMER "Lee Seung Chul (이승철)"
INDEX 01 13:10:45
TRACK 05 AUDIO
TITLE "말리꽃 (Jasmine)"
PERFORMER "Lee Seung Chul (이승철)"
INDEX 01 16:59:43
TRACK 06 AUDIO
TITLE "넌 또 다른 나 (You Are Other Me)"
PERFORMER "Lee Seung Chul (이승철)"
INDEX 00 21:48:64
INDEX 01 21:50:05
TRACK 07 AUDIO
TITLE "인연 (Destiny)"
PERFORMER "Lee Seung Chul (이승철)"
INDEX 01 26:15:50
TRACK 08 AUDIO
TITLE "달은 해가 꾸는 꿈 (The Moon Is A Dream Which Sun Dreaming Of)"
PERFORMER "Lee Seung Chul (이승철)"
INDEX 01 30:57:20
TRACK 09 AUDIO
TITLE "그대가 나에게 (To Me You Are)"
PERFORMER "Lee Seung Chul (이승철)"
INDEX 01 34:47:04
TRACK 10 AUDIO
TITLE "서쪽 하늘 (Western Sky - Inst.)"
PERFORMER "Lee Seung Chul (이승철)"
INDEX 00 39:09:48
INDEX 01 39:21:74
Playlist альбома "Blue. Movie collection Lee Seung Chul" в QMMP

Формат Индексной карты (.CUE), UTF8
2006 - Reflection of sound
Reflection of sound
01. 하얀새 (White Bird)
02. 소리쳐 (Yell)
03. Annie
04. 나를 믿어줘 (Trust Me)
05. Wish
06. 작은기대 (Little Hope)
07. 우리 (We)
08. 시계 (Clock)
09. 저..있잖아요 (Hey….Excuse Me…)
10. 우리 사랑을 해요 (We Are Loving Each Other)
11. 떠나지마 (Don't Go)
Звучание альбома 46 минут, 47 секунд.
Лог создания рипа "Reflection of sound"
Exact Audio Copy V0.99 prebeta 5 from 4. May 2009
EAC extraction logfile from 13. September 2011, 16:21
Lee Seung Chul / Reflection of sound
Used drive : HL-DT-STDVDRAM GSA-H10A Adapter: 3 ID: 0
Read mode : Secure
Utilize accurate stream : Yes
Defeat audio cache : Yes
Make use of C2 pointers : No
Read offset correction : 667
Overread into Lead-In and Lead-Out : No
Fill up missing offset samples with silence : Yes
Delete leading and trailing silent blocks : No
Null samples used in CRC calculations : Yes
Used interface : Native Win32 interface for Win NT & 2000
Used output format : Internal WAV Routines
Sample format : 44.100 Hz; 16 Bit; Stereo
TOC of the extracted CD
Track | Start | Length | Start sector | End sector
---------------------------------------------------------
1 | 0:00.00 | 4:32.02 | 0 | 20401
2 | 4:32.02 | 3:50.40 | 20402 | 37691
3 | 8:22.42 | 4:47.35 | 37692 | 59251
4 | 13:10.02 | 4:24.51 | 59252 | 79102
5 | 17:34.53 | 4:03.32 | 79103 | 97359
6 | 21:38.10 | 3:54.29 | 97360 | 114938
7 | 25:32.39 | 4:51.04 | 114939 | 136767
8 | 30:23.43 | 3:47.16 | 136768 | 153808
9 | 34:10.59 | 3:39.56 | 153809 | 170289
10 | 37:50.40 | 4:41.71 | 170290 | 191435
11 | 42:32.36 | 4:16.10 | 191436 | 210645
Range status and errors
Selected range
Filename D:\Музыка\Мои альбомы\Lee Seung Chul\2006 - Reflection of sound\Lee Seung Chul - Reflection of sound.wav
Peak level 98.8 %
Range quality 99.9 %
Test CRC 0C9B70F7
Copy CRC 0C9B70F7
Copy OK
No errors occurred
AccurateRip summary
Track 1 not present in database
Track 2 not present in database
Track 3 not present in database
Track 4 not present in database
Track 5 not present in database
Track 6 not present in database
Track 7 not present in database
Track 8 not present in database
Track 9 not present in database
Track 10 not present in database
Track 11 not present in database
None of the tracks are present in the AccurateRip database
End of status report
Содержание индексных карт (.CUE)
Lee Seung Chul - Reflection of sound (FLAC).cue
REM GENRE Ballad
REM DATE 2006
REM DISCID 7D0AF80B
REM COMMENT "ExactAudioCopy v0.99pb5"
PERFORMER "Lee Seung Chul"
TITLE "Reflection of sound"
FILE "Lee Seung Chul - Reflection of sound.flac" FLAC
TRACK 01 AUDIO
TITLE "하얀새 (White Bird)"
PERFORMER "Lee Seung Chul (이승철)"
INDEX 01 00:00:00
TRACK 02 AUDIO
TITLE "소리쳐 (Yell)"
PERFORMER "Lee Seung Chul (이승철)"
INDEX 00 04:30:03
INDEX 01 04:32:02
TRACK 03 AUDIO
TITLE "Annie"
PERFORMER "Lee Seung Chul (이승철)"
INDEX 00 08:20:43
INDEX 01 08:22:42
TRACK 04 AUDIO
TITLE "나를 믿어줘 (Trust Me)"
PERFORMER "Lee Seung Chul (이승철)"
INDEX 00 13:08:03
INDEX 01 13:10:02
TRACK 05 AUDIO
TITLE "Wish"
PERFORMER "Lee Seung Chul (이승철)"
INDEX 00 17:32:54
INDEX 01 17:34:53
TRACK 06 AUDIO
TITLE "작은기대 (Little Hope)"
PERFORMER "Lee Seung Chul (이승철)"
INDEX 00 21:37:11
INDEX 01 21:38:10
TRACK 07 AUDIO
TITLE "우리 (We)"
PERFORMER "Lee Seung Chul (이승철)"
INDEX 00 25:31:05
INDEX 01 25:32:39
TRACK 08 AUDIO
TITLE "시계 (Clock)"
PERFORMER "Lee Seung Chul (이승철)"
INDEX 00 30:22:09
INDEX 01 30:23:43
TRACK 09 AUDIO
TITLE "저..있잖아요 (Hey….Excuse Me…)"
PERFORMER "Lee Seung Chul (이승철)"
INDEX 00 34:09:60
INDEX 01 34:10:59
TRACK 10 AUDIO
TITLE "우리 사랑을 해요 (We Are Loving Each Other)"
PERFORMER "Lee Seung Chul (이승철)"
INDEX 00 37:48:04
INDEX 01 37:50:40
TRACK 11 AUDIO
TITLE "떠나지마 (Don't Go)"
PERFORMER "Lee Seung Chul (이승철)"
INDEX 00 42:30:35
INDEX 01 42:32:36
Lee Seung Chul - Reflection of sound.cue
REM GENRE Ballad
REM DATE 2006
REM DISCID 7D0AF80B
REM COMMENT "ExactAudioCopy v0.99pb5"
PERFORMER "Lee Seung Chul"
TITLE "Reflection of sound"
FILE "Lee Seung Chul - Reflection of sound.wav" WAVE
TRACK 01 AUDIO
TITLE "하얀새 (White Bird)"
PERFORMER "Lee Seung Chul (이승철)"
INDEX 01 00:00:00
TRACK 02 AUDIO
TITLE "소리쳐 (Yell)"
PERFORMER "Lee Seung Chul (이승철)"
INDEX 00 04:30:03
INDEX 01 04:32:02
TRACK 03 AUDIO
TITLE "Annie"
PERFORMER "Lee Seung Chul (이승철)"
INDEX 00 08:20:43
INDEX 01 08:22:42
TRACK 04 AUDIO
TITLE "나를 믿어줘 (Trust Me)"
PERFORMER "Lee Seung Chul (이승철)"
INDEX 00 13:08:03
INDEX 01 13:10:02
TRACK 05 AUDIO
TITLE "Wish"
PERFORMER "Lee Seung Chul (이승철)"
INDEX 00 17:32:54
INDEX 01 17:34:53
TRACK 06 AUDIO
TITLE "작은기대 (Little Hope)"
PERFORMER "Lee Seung Chul (이승철)"
INDEX 00 21:37:11
INDEX 01 21:38:10
TRACK 07 AUDIO
TITLE "우리 (We)"
PERFORMER "Lee Seung Chul (이승철)"
INDEX 00 25:31:05
INDEX 01 25:32:39
TRACK 08 AUDIO
TITLE "시계 (Clock)"
PERFORMER "Lee Seung Chul (이승철)"
INDEX 00 30:22:09
INDEX 01 30:23:43
TRACK 09 AUDIO
TITLE "저..있잖아요 (Hey….Excuse Me…)"
PERFORMER "Lee Seung Chul (이승철)"
INDEX 00 34:09:60
INDEX 01 34:10:59
TRACK 10 AUDIO
TITLE "우리 사랑을 해요 (We Are Loving Each Other)"
PERFORMER "Lee Seung Chul (이승철)"
INDEX 00 37:48:04
INDEX 01 37:50:40
TRACK 11 AUDIO
TITLE "떠나지마 (Don't Go)"
PERFORMER "Lee Seung Chul (이승철)"
INDEX 00 42:30:35
INDEX 01 42:32:36
Playlist альбома "Reflection of sound" в QMMP

Формат Индексной карты (.CUE), UTF8
2007 - The Secret of Color 2
The Secret of Color 2
01. Part Time Lover
02. 아무 말도 (Don't Speak)
03. 사랑한다 (I Love You)
04. Propose
05. 눈물자욱 (Teardrops)
06. 그날... 그 기억 (That Day…Those Memories)
07. 더 사랑하니까 (Because I Love You More)
08. 하고 싶은 말 (These Words That I Want To Say)
09. 너의 하늘 (Your Sky)
Звучание альбома 39 минут, 26 секунд.
Лог создания рипа "The Secret of Color 2"
Exact Audio Copy V0.99 prebeta 5 from 4. May 2009
EAC extraction logfile from 14. September 2011, 12:57
Lee Seung Chul / The Secret Of Color 2
Used drive : HL-DT-STDVDRAM GSA-H10A Adapter: 3 ID: 0
Read mode : Secure
Utilize accurate stream : Yes
Defeat audio cache : Yes
Make use of C2 pointers : No
Read offset correction : 667
Overread into Lead-In and Lead-Out : No
Fill up missing offset samples with silence : Yes
Delete leading and trailing silent blocks : No
Null samples used in CRC calculations : Yes
Used interface : Native Win32 interface for Win NT & 2000
Used output format : Internal WAV Routines
Sample format : 44.100 Hz; 16 Bit; Stereo
TOC of the extracted CD
Track | Start | Length | Start sector | End sector
---------------------------------------------------------
1 | 0:00.00 | 3:46.29 | 0 | 16978
2 | 3:46.29 | 3:54.71 | 16979 | 34599
3 | 7:41.25 | 3:50.40 | 34600 | 51889
4 | 11:31.65 | 4:04.59 | 51890 | 70248
5 | 15:36.49 | 4:01.26 | 70249 | 88349
6 | 19:38.00 | 4:45.20 | 88350 | 109744
7 | 24:23.20 | 4:26.50 | 109745 | 129744
8 | 28:49.70 | 5:42.33 | 129745 | 155427
9 | 34:32.28 | 4:54.47 | 155428 | 177524
Range status and errors
Selected range
Filename D:\Музыка\Мои альбомы\Lee Seung Chul\2007 - The Secret of Color 2\Lee Seung Chul - The Secret Of Color 2.wav
Peak level 99.9 %
Range quality 100.0 %
Test CRC 7BD60BAC
Copy CRC 7BD60BAC
Copy OK
No errors occurred
AccurateRip summary
Track 1 accurately ripped (confidence 1) [12E06A3A]
Track 2 accurately ripped (confidence 1) [228133A3]
Track 3 accurately ripped (confidence 1) [EEB47863]
Track 4 accurately ripped (confidence 1) [AA3B66AE]
Track 5 accurately ripped (confidence 1) [BD0E6308]
Track 6 accurately ripped (confidence 1) [40364214]
Track 7 accurately ripped (confidence 1) [0E5EE611]
Track 8 accurately ripped (confidence 1) [80B337FA]
Track 9 accurately ripped (confidence 1) [4DFC3F91]
All tracks accurately ripped
End of status report
Содержание индексных карт (.CUE)
Lee Seung Chul - The Secret Of Color 2 (FLAC).cue
REM GENRE Ballad
REM DATE 2007
REM DISCID 74093F09
REM COMMENT "ExactAudioCopy v0.99pb5"
PERFORMER "Lee Seung Chul"
TITLE "The Secret Of Color 2"
FILE "Lee Seung Chul - The Secret Of Color 2.flac" FLAC
TRACK 01 AUDIO
TITLE "Part Time Lover"
PERFORMER "Lee Seung Chul (이승철)"
INDEX 01 00:00:00
TRACK 02 AUDIO
TITLE "아무 말도 (Don't Speak)"
PERFORMER "Lee Seung Chul (이승철)"
INDEX 00 03:46:15
INDEX 01 03:46:29
TRACK 03 AUDIO
TITLE "사랑한다 (I Love You)"
PERFORMER "Lee Seung Chul (이승철)"
INDEX 00 07:41:00
INDEX 01 07:41:25
TRACK 04 AUDIO
TITLE "Propose"
PERFORMER "Lee Seung Chul (이승철)"
INDEX 00 11:31:34
INDEX 01 11:31:65
TRACK 05 AUDIO
TITLE "눈물자욱 (Teardrops)"
PERFORMER "Lee Seung Chul (이승철)"
INDEX 00 15:35:60
INDEX 01 15:36:49
TRACK 06 AUDIO
TITLE "그날... 그 기억 (That Day…Those Memories)"
PERFORMER "Lee Seung Chul (이승철)"
INDEX 00 19:37:19
INDEX 01 19:38:00
TRACK 07 AUDIO
TITLE "더 사랑하니까 (Because I Love You More)"
PERFORMER "Lee Seung Chul (이승철)"
INDEX 00 24:22:61
INDEX 01 24:23:20
TRACK 08 AUDIO
TITLE "하고 싶은 말 (These Words That I Want To Say)"
PERFORMER "Lee Seung Chul (이승철)"
INDEX 00 28:48:50
INDEX 01 28:49:70
TRACK 09 AUDIO
TITLE "너의 하늘 (Your Sky)"
PERFORMER "Lee Seung Chul (이승철)"
INDEX 01 34:32:28
Lee Seung Chul - The Secret Of Color 2.cue
REM GENRE Ballad
REM DATE 2007
REM DISCID 74093F09
REM COMMENT "ExactAudioCopy v0.99pb5"
PERFORMER "Lee Seung Chul"
TITLE "The Secret Of Color 2"
FILE "Lee Seung Chul - The Secret Of Color 2.wav" WAVE
TRACK 01 AUDIO
TITLE "Part Time Lover"
PERFORMER "Lee Seung Chul (이승철)"
INDEX 01 00:00:00
TRACK 02 AUDIO
TITLE "아무 말도 (Don't Speak)"
PERFORMER "Lee Seung Chul (이승철)"
INDEX 00 03:46:15
INDEX 01 03:46:29
TRACK 03 AUDIO
TITLE "사랑한다 (I Love You)"
PERFORMER "Lee Seung Chul (이승철)"
INDEX 00 07:41:00
INDEX 01 07:41:25
TRACK 04 AUDIO
TITLE "Propose"
PERFORMER "Lee Seung Chul (이승철)"
INDEX 00 11:31:34
INDEX 01 11:31:65
TRACK 05 AUDIO
TITLE "눈물자욱 (Teardrops)"
PERFORMER "Lee Seung Chul (이승철)"
INDEX 00 15:35:60
INDEX 01 15:36:49
TRACK 06 AUDIO
TITLE "그날... 그 기억 (That Day…Those Memories)"
PERFORMER "Lee Seung Chul (이승철)"
INDEX 00 19:37:19
INDEX 01 19:38:00
TRACK 07 AUDIO
TITLE "더 사랑하니까 (Because I Love You More)"
PERFORMER "Lee Seung Chul (이승철)"
INDEX 00 24:22:61
INDEX 01 24:23:20
TRACK 08 AUDIO
TITLE "하고 싶은 말 (These Words That I Want To Say)"
PERFORMER "Lee Seung Chul (이승철)"
INDEX 00 28:48:50
INDEX 01 28:49:70
TRACK 09 AUDIO
TITLE "너의 하늘 (Your Sky)"
PERFORMER "Lee Seung Chul (이승철)"
INDEX 01 34:32:28
Playlist альбома "The Secret of Color 2" в QMMP

Формат Индексной карты (.CUE), UTF8
2009 - The land of dreams Mutopia
The land of dreams Mutopia
01. 사랑 참 어렵다 (Love is So Difficult)
02. 손톱이 빠져서 (My Nail Came Off)
03. In The Love
04. 뒤돌아보면
05. 얼마나 더 울어야해
06. 너 때문에 눈물 흘린다
07. 사랑아
08. Reggae Night
09. Love Is
10. 넌 잊었는지
11. My Girl
12. 듣고있나요
13. 그런 사람 또 없습니다
14. Moving Star
Звучание альбома 55 минут, 20 секунд.
Лог создания рипа "The land of dreams Mutopia"
Exact Audio Copy V0.99 prebeta 5 from 4. May 2009
EAC extraction logfile from 14. September 2011, 16:42
Lee Seung Chul / The land of dreams Mutopia
Used drive : HL-DT-STDVDRAM GSA-H10A Adapter: 3 ID: 0
Read mode : Secure
Utilize accurate stream : Yes
Defeat audio cache : Yes
Make use of C2 pointers : No
Read offset correction : 667
Overread into Lead-In and Lead-Out : No
Fill up missing offset samples with silence : Yes
Delete leading and trailing silent blocks : No
Null samples used in CRC calculations : Yes
Used interface : Native Win32 interface for Win NT & 2000
Used output format : Internal WAV Routines
Sample format : 44.100 Hz; 16 Bit; Stereo
TOC of the extracted CD
Track | Start | Length | Start sector | End sector
---------------------------------------------------------
1 | 0:00.00 | 3:51.65 | 0 | 17389
2 | 3:51.65 | 3:56.44 | 17390 | 35133
3 | 7:48.34 | 3:34.72 | 35134 | 51255
4 | 11:23.31 | 3:59.25 | 51256 | 69205
5 | 15:22.56 | 4:08.34 | 69206 | 87839
6 | 19:31.15 | 4:24.02 | 87840 | 107641
7 | 23:55.17 | 4:10.21 | 107642 | 126412
8 | 28:05.38 | 3:22.14 | 126413 | 141576
9 | 31:27.52 | 3:39.27 | 141577 | 158028
10 | 35:07.04 | 4:17.33 | 158029 | 177336
11 | 39:24.37 | 3:55.34 | 177337 | 194995
12 | 43:19.71 | 4:11.69 | 194996 | 213889
13 | 47:31.65 | 3:45.68 | 213890 | 230832
14 | 51:17.58 | 4:02.46 | 230833 | 249028
Range status and errors
Selected range
Filename D:\Музыка\Мои альбомы\Lee Seung Chul\2009 - The land of dreams Mutopia\Lee Seung Chul - The land of dreams Mutopia.wav
Peak level 100.0 %
Range quality 100.0 %
Test CRC 38377D01
Copy CRC 38377D01
Copy OK
No errors occurred
AccurateRip summary
Track 1 accurately ripped (confidence 1) [8DF14AA1]
Track 2 accurately ripped (confidence 1) [5CD5A9AC]
Track 3 accurately ripped (confidence 1) [6ADDBF30]
Track 4 accurately ripped (confidence 1) [A31C26CF]
Track 5 accurately ripped (confidence 1) [3BD0C12F]
Track 6 accurately ripped (confidence 1) [CCE371B8]
Track 7 accurately ripped (confidence 1) [6602A17C]
Track 8 accurately ripped (confidence 1) [686AD2A7]
Track 9 accurately ripped (confidence 1) [C16DE605]
Track 10 accurately ripped (confidence 1) [8D871DE7]
Track 11 accurately ripped (confidence 1) [060DDEFA]
Track 12 accurately ripped (confidence 1) [28E1A795]
Track 13 accurately ripped (confidence 1) [09B50B5B]
Track 14 accurately ripped (confidence 1) [7B9850AC]
All tracks accurately ripped
End of status report
Содержание индексных карт (.CUE)
Lee Seung Chul - The land of dreams Mutopia (FLAC).cue
REM GENRE Ballad
REM DATE 2009
REM DISCID CD0CF80E
REM COMMENT "ExactAudioCopy v0.99pb5"
PERFORMER "Lee Seung Chul"
TITLE "The land of dreams Mutopia"
FILE "Lee Seung Chul - The land of dreams Mutopia.flac" FLAC
TRACK 01 AUDIO
TITLE "사랑 참 어렵다 (Love is So Difficult)"
PERFORMER "Lee Seung Chul (이승철)"
INDEX 01 00:00:00
TRACK 02 AUDIO
TITLE "손톱이 빠져서 (My Nail Came Off)"
PERFORMER "Lee Seung Chul (이승철)"
INDEX 01 03:51:65
TRACK 03 AUDIO
TITLE "In The Love"
PERFORMER "Lee Seung Chul (이승철)"
INDEX 01 07:48:34
TRACK 04 AUDIO
TITLE "뒤돌아보면"
PERFORMER "Lee Seung Chul (이승철)"
INDEX 01 11:23:31
TRACK 05 AUDIO
TITLE "얼마나 더 울어야해"
PERFORMER "Lee Seung Chul (이승철)"
INDEX 01 15:22:56
TRACK 06 AUDIO
TITLE "너 때문에 눈물 흘린다"
PERFORMER "Lee Seung Chul (이승철)"
INDEX 01 19:31:15
TRACK 07 AUDIO
TITLE "사랑아"
PERFORMER "Lee Seung Chul (이승철)"
INDEX 01 23:55:17
TRACK 08 AUDIO
TITLE "Reggae Night"
PERFORMER "Lee Seung Chul (이승철)"
INDEX 01 28:05:38
TRACK 09 AUDIO
TITLE "Love Is"
PERFORMER "Lee Seung Chul (이승철)"
INDEX 01 31:27:52
TRACK 10 AUDIO
TITLE "넌 잊었는지"
PERFORMER "Lee Seung Chul (이승철)"
INDEX 01 35:07:04
TRACK 11 AUDIO
TITLE "My Girl"
PERFORMER "Lee Seung Chul (이승철)"
INDEX 01 39:24:37
TRACK 12 AUDIO
TITLE "듣고있나요"
PERFORMER "Lee Seung Chul (이승철)"
INDEX 01 43:19:71
TRACK 13 AUDIO
TITLE "그런 사람 또 없습니다"
PERFORMER "Lee Seung Chul (이승철)"
INDEX 01 47:31:65
TRACK 14 AUDIO
TITLE "Moving Star"
PERFORMER "Lee Seung Chul (이승철)"
INDEX 01 51:17:58
Lee Seung Chul - The land of dreams Mutopia.cue
REM GENRE Ballad
REM DATE 2009
REM DISCID CD0CF80E
REM COMMENT "ExactAudioCopy v0.99pb5"
PERFORMER "Lee Seung Chul"
TITLE "The land of dreams Mutopia"
FILE "Lee Seung Chul - The land of dreams Mutopia.wav" WAVE
TRACK 01 AUDIO
TITLE "사랑 참 어렵다 (Love is So Difficult)"
PERFORMER "Lee Seung Chul (이승철)"
INDEX 01 00:00:00
TRACK 02 AUDIO
TITLE "손톱이 빠져서 (My Nail Came Off)"
PERFORMER "Lee Seung Chul (이승철)"
INDEX 01 03:51:65
TRACK 03 AUDIO
TITLE "In The Love"
PERFORMER "Lee Seung Chul (이승철)"
INDEX 01 07:48:34
TRACK 04 AUDIO
TITLE "뒤돌아보면"
PERFORMER "Lee Seung Chul (이승철)"
INDEX 01 11:23:31
TRACK 05 AUDIO
TITLE "얼마나 더 울어야해"
PERFORMER "Lee Seung Chul (이승철)"
INDEX 01 15:22:56
TRACK 06 AUDIO
TITLE "너 때문에 눈물 흘린다"
PERFORMER "Lee Seung Chul (이승철)"
INDEX 01 19:31:15
TRACK 07 AUDIO
TITLE "사랑아"
PERFORMER "Lee Seung Chul (이승철)"
INDEX 01 23:55:17
TRACK 08 AUDIO
TITLE "Reggae Night"
PERFORMER "Lee Seung Chul (이승철)"
INDEX 01 28:05:38
TRACK 09 AUDIO
TITLE "Love Is"
PERFORMER "Lee Seung Chul (이승철)"
INDEX 01 31:27:52
TRACK 10 AUDIO
TITLE "넌 잊었는지"
PERFORMER "Lee Seung Chul (이승철)"
INDEX 01 35:07:04
TRACK 11 AUDIO
TITLE "My Girl"
PERFORMER "Lee Seung Chul (이승철)"
INDEX 01 39:24:37
TRACK 12 AUDIO
TITLE "듣고있나요"
PERFORMER "Lee Seung Chul (이승철)"
INDEX 01 43:19:71
TRACK 13 AUDIO
TITLE "그런 사람 또 없습니다"
PERFORMER "Lee Seung Chul (이승철)"
INDEX 01 47:31:65
TRACK 14 AUDIO
TITLE "Moving Star"
PERFORMER "Lee Seung Chul (이승철)"
INDEX 01 51:17:58
Playlist альбома "The land of dreams Mutopia" в QMMP

Формат Индексной карты (.CUE), UTF8
2009 - The land of dreams Mutopia - 2 клипа. Bonus DVD
The land of dreams Mutopia - 2 клипа. Bonus DVD
Треклист:
01. 사랑 참 어렵다 / Love is so difficult
02. 손톱이 빠져서 / My Nails Came Off [MV]
Бонусный DVD прилагающийся к CD Lee Seung Chul - The land of dreams Mutopia
.
.
Об альбоме (сборнике): Blue. Movie collection Lee Seung Chul
Ли Сын Чхоль: 20 лет на эстрадe
В прошлом году 20-летие своей творческой карьеры отметил один из ярких представителей современной корейской эстрады, исполнитель, чьи песни с одинаковым успехом апеллируют как к тинэйджерам, так и к тем, кому за сорок, обладатель очень приятного голоса, которым он отлично владеет как в студии, так и на концертной сцене, – певец по имени Ли Сын Чхоль. В декабре прошлого года ему исполнилось 39 лет.
Свой путь на южнокорейской эстраде Ли Сын Чхоль начал в 1985 году в качестве вокалиста рок-группы «Пухваль» («Воскресение»). Тогда ему было всего 19 лет. Очень скоро название группы стало ассоциироваться у меломанов с именем певца. Вместе с «Пухваль» Ли Сын Чхоль записал два альбома. Но в 1988 году их пути разошлись. Ли пошел по сольной стезе, которая принесла ему большой успех, хотя и была порой довольно тернистой. В 1989 году у него вышла первая сольная пластинка «Не говори «прощай»». Все складывалось очень удачно, песни Ли Сын Чхоля шли «на ура», звучали на радио и телевидении. Но потом среди ясного неба грянул гром. Певца уличили в курении марихуаны. В те годы это было очень модно среди артистической богемы и людей искусства – курение «травки» несло своеобразный вызов, поскольку было строжайше запрещено, равно как и употребление любых других видов наркотиков, а, как известно, нет ничего приятнее, чем вкушать запретный плод. Но за сиюминутные увлечения Ли Сын Чхолю пришлось серьезно поплатиться: путь на радио и телевидение ему был закрыт на целых пять лет. Так что с 1991 по 1995 год он фактически находился в опале. Но беда, как говорит народная мудрость, никогда не приходит одна: к творческому кризису прибавился еще и семейный – Ли Сын Чхоль развелся со своей супругой.
Как вспоминает певец, утешение ему, уже в молодые годы познавшему сладкий вкус славы, гнев властей и все «прелести» развода, часто приходилось искать в объятиях «зеленого змия». Но спасительную соломинку Ли Сын Чхоль нашел опять-таки в музыке. Лишенный доступа на радио и телевидение, Ли посвятил себя в те годы концертной деятельности. Он выступал в основном на малых сценах, пел живьем и даже записал несколько альбомов, которые, несмотря на опальное положение певца, были тепло встречены поклонниками Ли – может потому, что вобрали в себя его гнев и грусть, печаль и сожаление, и надежду на будущее.
Но прошли пять лет опалы, и в 1996 году Ли Сын Чхоль вернулся на большую сцену со своим пятым альбомом «И сегодня я опять один». К сегодняшнему дню на счету у Ли Сын Чхоля в общей сложности уже около 20 дисков, включая 9 полноценных «регулярных» альбомов (2 записанных в составе группы «Пухваль» и 7 сольных дисков). В 2001 году, Ли опять появился на сцене в составе рок-группы «Пухваль», с которой он дебютировал в 1985 году. Он принял участие в записи восьмого альбома группы, который оказался довольно успешным. Заглавная песня альбома – «Бесконечная история» - дошла тогда до верхних строчек хит-парада. Затем, в 2004 году Ли Сын Чхоль исполнил песню «Судьба» для популярного телесериала «Жар-птица». Песня побывала с составе топ-десятки. Летом 2004 года у Ли вышел очень успешный седьмой альбом с песней «Длинный день», которая пять недель подряд продержалась в хит-параде на лидирующей позиции.
В прошлом году певец отметил 20-летие своей творческой карьеры выпуском юбилейного альбома с песней «Сосчитаю до десяти», которая по итогам голосования наших радиослушателей заняла 4-е место в рейтинге лучших песен 2005 года. А в самом конце прошлого года у Ли Сын Чхоля вышел сборник песен, которые он исполнил в разные годы для различных кинофильмов и телесериалов. Сборник получил название «Киноколлекция Ли Сын Чхоля».
"В мире корейской поп-музыки" от 2006-06-03
----------------------------------------------------
------------------------------
--------------
http://world.kbs.co.kr/russian/program/program_musicnews_detail.htm?No=4164
Об альбоме (сборнике): Reflection of sound
8-й альбом Ли Сын Чхоля
«Отражение звука» - так называется новый, уже восьмой по счету альбом певца Ли Сын Чхоля, релиз которого состоялся совсем недавно, в конце сентября. Ли – один из тех талантливых исполнителей, чьи песни с одинаковым успехом апеллируют как к тинэйджерам, так и к тем, кому за сорок. И когда видишь его имя на обложке нового альбома, то всегда ожидаешь услышать очень приятный, располагающий голос, отличную, очень мелодичную и душевную музыку. И Ли Сын Чхоль никогда не обманывает этих ожиданий.
В декабре этого года Ли исполнится 40 лет, а в прошлом году певец отметил 20-летие своей творческой карьеры. Свой путь на южнокорейской эстраде Ли Сын Чхоль начал в 1985 году в качестве вокалиста рок-группы «Пухваль». Тогда ему было всего 19 лет. Но в 1988 году их пути разошлись. Ли пошел по сольной стезе, которая принесла ему большой успех. В 1989 году у него вышла первая сольная пластинка. К сегодняшнему дню на счету у Ли Сын Чхоля в общей сложности уже более 20 дисков, включая два альбома, записанных в составе группы «Пухваль» и 8 сольных альбомов.
Свой предпоследний, седьмой альбом Ли выпустил летом 2004 года. Альбом был очень успешным, и песня «Длинный день», вошедшая в его состав, целых пять недель подряд продержалась тогда в хит-параде на лидирующей позиции.
В прошлом году певец отметил 20-летие своей творческой карьеры выпуском юбилейного альбома с песней «Сосчитаю до десяти», которая по итогам голосования наших радиослушателей заняла 4-е место в рейтинге лучших песен 2005 года. А в самом конце прошлого года у Ли Сын Чхоля вышел сборник песен, которые он исполнил в разные годы для различных кинофильмов и телесериалов.
Что касается этого года, то весной певец выпустил сборник своих лучших песен, а затем принял участие в записи сборника под названием «Где-то там, над радугой», исполнив для него песню «Не уходи», которая этим летом побывала в составе топ-десятки.
Не прошло и трех недель после официального релиза восьмого альбома Ли Сын Чхоля, как песня «Кричу от любви» из него также покорила топ-десятку, дойдя на прошлой неделе до первого места, а на этой неделе переместившись на вторую позицию.
В новый диск певца вошли 11 песен. Все они – это рассказ о любви, который длится целый час под прекрасную акустическую музыку. При записи этого альбома Ли Сын Чхоль решил ограничиться минимальным набором музыкальных инструментов, с тем чтобы подчеркнуть свой великолепный голос, которым он отлично владеет как в студии, так и на концертной сцене. Аккомпанируют певцу акустическая гитара, бас-гитара, барабан и пианино, иногда виолончель и духовые. В отличие от других современных исполнителей, которые часто прибегают к мощному оркестровому аккомпанированию и в результате пытаются «перекричать» оркестр, Ли Сын Чхоль предпочитает петь естественным, не надрывным голосом с тем, чтобы продемонстрировать слушателю всю его красоту и возможности. Ну и еще «акустичность» песен Ли делает их, наверное, более одушевленными.
"В мире корейской поп-музыки" от 2006-11-04
-----------------
-------------
--------
http://world.kbs.co.kr/russian/program/program_musicnews_detail.htm?No=4806
Об альбоме (сборнике): The Secret of Color 2
Новый альбом Ли Сын Чхоля
«Длинный день», «Кричу от любви», «Белая птица» - эти недавние хиты в исполнении «короля баллад» и «мастера живого пения» Ли Сын Чхоля с одинаковым успехом апеллируют как к тинэйджерам, так и к тем, кому за сорок. Ли Сын Чхоль – обладатель очень приятного голоса, которым он отлично владеет как в студии, так и на концертной сцене.
5 декабря этого года Ли Сын Чхолю исполнится уже 41 год. В преддверии своего очередного дня рождения певец сделал всем своим поклонникам отличный подарок, выпустив новый, уже девятый по счету альбом под названием «Секрет цвета – 2».
Новая работа певца – это своего рода продолжение его 4-го альбома, выпущенного в 1994 году, который тоже назывался «Секрет цвета». Два альбома роднит не только название, но и то, что певец записывал их за океаном, в Америке. Правда, работа над альбомом 1994 года проходила в Нью-Йорке, и он вобрал в себя настрой этого города – блюзовый и минорный. А вот «Секрет цвета – 2», выпущенный в этом году, записывался в Лос-Анджелесе – городе солнца и тепла. И сам альбом от этого получился светлым и теплым.
Но, думаю, не только это сказалось на настрое нового альбома Ли Сын Чхоля. За прошедший год в жизни певца произошло важное событие: он повторно женился, и у него появилась любящая жена и даже 14-летняя дочь. Именно им и посвятил свою новую работу Ли Сын Чхоль.
Для записи своего 9-го альбома певец на два месяца отправился в Лос-Анджелес. «По вечерам, после записи я любил сидеть вместе с женой в кресле на террасе дома, пить вино и смотреть на закат. В эти моменты я чувствовал себя самым счастливым человеком на Земле. Если бы не моя жена, то я, наверное, не смог бы выпустить этот альбом», - говорит Ли Сын Чхоль.
Во время работы над новой пластинкой жена оказывала певцу не только моральную поддержку, но и вполне реальную помощь. Она первой оправилась в Лос-Анджелес, сняла дом, нашла студию для записи и подобрала сессионных музыкантов – словом, взяла на себя всю организационную работу. Так что, как признается сам певец, работа над новой пластинкой шла «без сучка и задоринки».
В 9-й альбом Ли Сын Чхоля вошли девять композиций. Заглавная песня альбома называется «Люблю». На прошлой неделе она оказалась в составе топ-десятки на восьмом месте, а на этой неделе переместилась на пятую позицию.
Напомним вкратце основные вехи творческого пути певца. Свой путь на южнокорейской эстраде Ли Сын Чхоль начал в 1985 году в качестве вокалиста рок-группы «Пухваль» («Воскресение»), вместе с которой Ли записал два альбома. Но в 1988 году их пути разошлись, и в 1989 году у Ли Сын Чхоля вышла первая сольная пластинка «Не говори «прощай»», получившая благосклонную оценку меломанов. Все складывалось очень удачно, но потом среди ясного неба грянул гром. Певца уличили в курении марихуаны.
За сиюминутное увлечение Ли Сын Чхолю пришлось серьезно поплатиться: путь на радио и телевидение ему был закрыт на целых пять лет. К творческому кризису прибавился еще и семейный – певец развелся со своей супругой. На большую сцену Ли вернулся лишь в 1996 году. К сегодняшнему дню на счету у Ли Сын Чхоля в общей сложности уже более 20 дисков, включая 11 полноценных «регулярных» альбомов (2 записанных в составе группы «Пухваль» и 9 сольных дисков).
Предпоследний 8-й сольный альбом Ли Сын Чхоля под названием «Отражение звука» увидел свет в сентябре прошлого года. И целых три композиции из него побывали в составе топ-десятки, дойдя в ней до лидирующей позиции. Это песни «Кричу от любви», «Белая птица» и «Часы».
В работе над новым, 9-м альбомом певца принимали участие многие известные музыканты. Среди них саксофонист Кирк Уалум (Kirk Whalum), исполнивший в свое время главную музыкальную тему для кинофильма «Бодигард» с Уитни Хьюстон в главной роли, участник группы All 4 One Джейми Джонс (Jamie Jones), гитарист Майкл Лэндоу, работавший с такими «звездами», как Майкл Джексон и Стинг, и многие другие.
Одну из песен для своего нового альбома Ли Сын Чхоль записал совместно с участниками популярного южнокорейского трио «Кобуги», в состав которого входят певец и композитор Им Сон Хун и две вокалистки именующие себя Чи И и Кым Пи. Песня эта называется Part Time Lover, что, наверное, можно перевести на русский как «Любовник по совместительству». В свое время песню с таким же названием исполнял легендарный американский певец Стиви Уандер. Но это совершенно другая композиция, не имеющая ничего общего с песней Part Time Lover из 9-го альбома Ли Сын Чхоля.
"В мире корейской поп-музыки" от 2007-11-17
--------------------------------------
---------------------
--------
http://rki.kbs.co.kr/russian/program/program_musicnews_detail.htm?No=6595
Об альбоме (сборнике): The land of dreams Mutopia

«Страна мечтаний» Ли Сын Чхоля: 6 мая 43-летний «король баллад» вернулся на музыкальную сцену
Певца Ли Сын Чхоля уже давно называют в Южной Корее не иначе как «королем баллад» и «виртуозом живого пения». Свой путь на южнокорейской эстраде Ли начал в 1985 году в качестве вокалиста рок-группы «Пухваль» («Воскресение»), и вот уже 24 года его приятный голос, которым он отлично владеет как в студии, так и на концертной сцене, согревает сердца миллионов меломанов – как совсем молодых, так и более старшего возраста.
6 мая 43-летний «король баллад» вернулся на музыкальную сцену со своим новым, десятым студийным альбомом, получившим название «Страна мечтаний Мутопия» («The Land of Dreams Mutopia»). Не спешите искать слово «мутопия» в словарях. Вы его там не найдете. Это личное изобретение Ли Сын Чхоля, сочетание двух слов – музыка (music) и утопия (utopia). Утопия, как известно, этот нечто фантастическое, несбыточное. Ну а мутопия, получается, это сказочный мир музыкальной феерии, страна мечтаний, совершить путешествие в которую певец приглашает слушателя своими великолепными песнями.
Скажу сразу: вместе со своим новым, десятым альбомом Ли Сын Чхоль, как всегда, оказался на высоте. И я думаю, что этот диск, в который вошли 13 композиций, станет настоящим украшением музыкальной коллекции любого, даже самого требовательного меломана.
Если почти все последние годы сольного творчества Ли Сын Чхоля его амплуа были поп-баллады, то в своем новом альбоме певец решил вернуться к истокам своей певческой карьеры, когда он был вокалистом рок-группы «Пухваль». В результате альбом получился заметно более рόковым по сравнению с предыдущими работами.
Заглавная композиция диска – песня под названием «Обломанные ногти» – выполнена в стиле британского модерн-рока (брит-рока). Ее автором является композитор и поэт-песенник Чон Хэ Сон, создатель известного хита Ли Сын Чхоля «Длинный день» и песни «Наверное, я тебя любил» из репертуара известного корейского рок-певца Юн До Хёна.
Напомним вкратце основные вехи творческого пути певца. Дебютировав в 1985 году в качестве вокалиста рок-группы «Пухваль» («Воскресение»), певец записал вместе с ней два альбома. Но в 1988 году их пути разошлись, и в 1989 году у Ли Сын Чхоля вышла первая сольная пластинка «Не говори «прощай»», получившая благосклонную оценку меломанов.
Все складывалось очень удачно, но потом среди ясного неба грянул гром. Певца уличили в курении марихуаны. За сиюминутное увлечение Ли Сын Чхолю пришлось серьезно поплатиться: путь на радио и телевидение ему был закрыт на целых пять лет. К творческому кризису прибавился еще и семейный – певец развелся со своей супругой. На большую сцену Ли вернулся лишь в 1996 году.
К сегодняшнему дню на счету у Ли Сын Чхоля в общей сложности уже 22 диска, включая 10 долгоиграющих сольных студийных альбомов и 2 альбома, записанных в составе группы «Пухваль». В 2006 году Ли Сын Чхоль выпустил свой 8-й студийный альбом под названием «Отражение звука», и целых три композиции из него побывали в составе топ-десятки, дойдя в ней до лидирующей позиции. Это песни «Кричу от любви», «Белая птица» и «Часы».
Девятый альбом певца под названием «Секрет цвета – 2» увидел свет в октябре 2007 года. Его заглавная композиция «Люблю» также побывала в составе топ-десятки. На этой неделе в ведущем южнокорейском музыкальном чарте Chart All-Korea оказалась и заглавная песня нового, 10-го альбома Ли Сын Чхоля – «Обломанные ногти». Свое движение по музыкальному рейтингу она начала сразу с 45-й позиции.
-------
"В мире корейской поп-музыки" от 2009-05-23
-----------
------------------------
http://rki.kbs.co.kr/russian/program/program_musicnews_detail.htm?No=9781

Мои раздачи
Download
Для скачивания .torrent файлов необходима регистрация
Сайт не распространяет и не хранит электронные версии произведений, а лишь предоставляет доступ к создаваемому пользователями каталогу ссылок на торрент-файлы, которые содержат только списки хеш-сумм
[Профиль]  [ЛС] 

Александр Макухин

Стаж: 9 лет 2 месяца

Сообщений: 618


Александр Макухин · 20-Сен-10 18:36 (спустя 3 часа)

В данную раздачу планирую добавить в дальнейшим ещё альбом Lee Seung Chul + Обложки + треклист.
[Профиль]  [ЛС] 

bruk67

VIP (Заслуженный)

Стаж: 10 лет 8 месяцев

Сообщений: 8299

bruk67 · 21-Сен-10 01:29 (спустя 6 часов)

Александр Макухин
3.3 В описании релиза необходимо указывать источник рипа. В частности, при публикации рипа, полученного из сторонних источников, обязательно указывать его происхождение: трекер, локальная сеть и т.п., название ресурса, если таковое имеется (но не интерактивную ссылку!), а также ник первоначального релизера, если это возможно.
Правила публикации и оформления раздач в lossless разделах категорий Музыка, Рок-музыка, Электронная музыка
[Профиль]  [ЛС] 

Александр Макухин

Стаж: 9 лет 2 месяца

Сообщений: 618


Александр Макухин · 21-Сен-10 07:55 (спустя 6 часов, ред. 22-Сен-10 10:29)

Цитата:
3.3 В описании релиза необходимо указывать источник рипа.
Диск получил по почте из Сеула в качестве приза от передачи "Музыкальный марафон" на KBS WORLD Radio.
Какие файлы на диске Lee Seung Chul 8 "Reflection of sound" можно скопировать в дополнение к раздаче альбома "Reflection of sound"?
скрытый текст
[Профиль]  [ЛС] 

bruk67

VIP (Заслуженный)

Стаж: 10 лет 8 месяцев

Сообщений: 8299

bruk67 · 25-Сен-10 19:00 (спустя 4 дня)

Цитата:
Какие файлы на диске Lee Seung Chul 8 "Reflection of sound" можно скопировать в дополнение к раздаче альбома "Reflection of sound"?
Добавлять можно любой бонусный материал, который присутствует на диске Enhanced CD (видеоклипы, скринсейверы, обои и т.д.)
вот так это делается
Код:
[spoiler="Год - Название альбома"]
[img=right]ссылка на картинку[/img]
[b]Треклист[/b]
1 ......
2 ......
[spoiler="Лог EAC"][pre]содержание лога[/pre][/spoiler]
[/spoiler]
[spoiler="Год - Название альбома"]
[img=right]ссылка на картинку[/img]
[b]Треклист[/b]
1 ......
2 ......
[spoiler="Лог EAC"][pre]содержание лога[/pre][/spoiler]
[/spoiler]
вот так это выглядит
Год - Название альбома
[img=right]ссылка на картинку[/img]
Треклист
1 ......
2 ......
Лог EAC
содержание лога
Год - Название альбома
[img=right]ссылка на картинку[/img]
Треклист
1 ......
2 ......
Лог EAC
содержание лога
Дооформите, пожалуйста
[Профиль]  [ЛС] 

Александр Макухин

Стаж: 9 лет 2 месяца

Сообщений: 618


Александр Макухин · 15-Сен-11 14:23 (спустя 11 месяцев, ред. 15-Сен-11 14:23)

Заявка на точный перевод треклиста альбома "The land of dreams Mutopia" с корейского на английский язык.
https://rutracker.org/forum/viewtopic.php?p=47581483#47581483
В раздаче "(KPop) Lee Seung Chul (이승철) - (4 Альбома) - 2005-2009, FLAC (image+.cue) lossless" произвёл следующие изменения:
- Переснял все четыре альбома с активированным AccurateRip;
- Добавил содержание индексных карт (.CUE);
- Добавил скриншоты плей-листов альбомов;
- Добавил под Спойлер ссылку на бонусный DVD прилагающийся к альбому "The land of dreams Mutopia".
[Профиль]  [ЛС] 

Karimlion2010

Стаж: 8 лет 5 месяцев

Сообщений: 19

Karimlion2010 · 06-Фев-12 00:14 (спустя 4 месяца 20 дней)

Спасибо за раздачу! Очень красивая лирическая музыка!
[Профиль]  [ЛС] 

Александр Макухин

Стаж: 9 лет 2 месяца

Сообщений: 618


Александр Макухин · 06-Июн-12 11:42 (спустя 4 месяца)

Новый релиз
Lee Seung Chul (이승철) / Golden Ballad & Special Live Best (골든발라드 & 스페셜 라이브 베스트)
[Профиль]  [ЛС] 

AnnushkO-2011

Стаж: 8 лет 1 месяц

Сообщений: 49

AnnushkO-2011 · 05-Ноя-12 23:36 (спустя 4 месяца 29 дней)

дайте скорости плыззззз!!! ваще не качает=((((((
[Профиль]  [ЛС] 
 
Ответить
Loading...
Error