[TR24][OF] Nocturnal Four: Ratko Zjaca, Stefano Bedetti, Renato Chicco, Antonio Sanchez - Life On Earth - 2018 (Modern Creative)

Страницы:  1

Ответить
Автор
Сообщение

papa1954

Top Seed 09* 10240r

Стаж: 12 лет 3 месяца

Сообщений: 16945

papa1954 · 13-Июн-18 17:49 (1 год назад)

Nocturnal Four: Ratko Zjaca, Stefano Bedetti, Renato Chicco, Antonio Sanchez - Life On Earth Формат записи/Источник записи: [TR24][OF]
Наличие водяных знаков: Нет
Год издания/переиздания диска: 2018
Жанр: Modern Creative
Издатель (лейбл): IN+OUT Records
Продолжительность: 61:43
Наличие сканов в содержимом раздачи: Только обложка альбома
Источник: WRZmusic
Магазин: qobuz.com
Треклист:
01. Baracoa (7:24)
02. Sense Of Mission (6:23)
03. Mind Your Step (7:23)
04. Shapes And Lights (8:09)
05. There Is No Tomorrow (5:50)
06. Here Nothing Begins (8:38)
07. Guanajo (7:34)
08. Finding Our Place (4:45)
09. Colours Of Dance (5:39)
Personnel:
Ratko Zjaca - guitar
Stefano Bedetti - saxophone
Renato Chicco - Hammond organ
Antonio Sanchez - drums
 

Контейнер: FLAC (*.flac)
Тип рипа: tracks
Разрядность: 24/48
Формат: PCM
Количество каналов: 2.0
Лог проверки качества
foobar2000 1.3.9 / Dynamic Range Meter 1.1.1
log date: 2018-06-13 17:33:49
--------------------------------------------------------------------------------
Analyzed: Ratko Zjaca / Life On Earth
--------------------------------------------------------------------------------
DR Peak RMS Duration Track
--------------------------------------------------------------------------------
DR10 -1.06 dB -12.77 dB 7:24 01-Baracoa
DR11 -1.06 dB -14.12 dB 6:23 02-Sense Of Mission
DR10 -1.01 dB -12.33 dB 7:23 03-Mind Your Step
DR10 -1.05 dB -13.03 dB 8:09 04-Shapes And Lights
DR12 -1.05 dB -16.75 dB 5:50 05-There Is No Tomorrow
DR10 -1.05 dB -13.26 dB 8:38 06-Here Nothing Begins
DR10 -1.05 dB -13.99 dB 7:34 07-Guanajo
DR11 -1.05 dB -14.31 dB 4:45 08-Finding Our Place
DR10 -1.06 dB -12.92 dB 5:39 09-Colours Of Dance
--------------------------------------------------------------------------------
Number of tracks: 9
Official DR value: DR10
Samplerate: 48000 Hz
Channels: 2
Bits per sample: 24
Bitrate: 1712 kbps
Codec: FLAC
================================================================================
Download
Для скачивания .torrent файлов необходима регистрация
Сайт не распространяет и не хранит электронные версии произведений, а лишь предоставляет доступ к создаваемому пользователями каталогу ссылок на торрент-файлы, которые содержат только списки хеш-сумм
[Профиль]  [ЛС] 
 
Ответить
Loading...
Error